<?xml version="1.0" standalone="no"?>
<!DOCTYPE svg PUBLIC "-//W3C//DTD SVG 1.1//EN" "http://www.w3.org/Graphics/SVG/1.1/DTD/svg11.dtd" >
<svg xmlns="http://www.w3.org/2000/svg" xmlns:xlink="http://www.w3.org/1999/xlink" version="1.1">
<metadata></metadata>
<defs>
<font id="store_norske_tangobold" horiz-adv-x="1617" >
<font-face units-per-em="2048" ascent="1638" descent="-410" />
<missing-glyph horiz-adv-x="505" />
<glyph unicode="&#xfb01;" horiz-adv-x="1282" d="M25 750v233h245v82q0 198 95 293q100 100 272 100q44 0 96 -10v-231q-40 4 -67 4q-85 0 -127 -54q-31 -45 -31 -139v-45h266v-233h-266v-750h-238v750h-245zM868 1309q0 71 51 121.5t121 50.5t121 -50.5t51 -121.5t-51 -121.5t-121 -50.5t-121 50.5t-51 121.5zM922 0v983 h237v-983h-237z" />
<glyph unicode="&#xfb02;" horiz-adv-x="1282" d="M25 750v233h245v82q0 198 95 293q100 100 272 100q44 0 96 -10v-231q-40 4 -67 4q-85 0 -127 -54q-31 -45 -31 -139v-45h266v-233h-266v-750h-238v750h-245zM922 0v1434h237v-1434h-237z" />
<glyph horiz-adv-x="0" />
<glyph horiz-adv-x="682" />
<glyph unicode="&#xd;" horiz-adv-x="1228" />
<glyph unicode=" "  horiz-adv-x="505" />
<glyph unicode="&#x09;" horiz-adv-x="505" />
<glyph unicode="&#xa0;" horiz-adv-x="505" />
<glyph unicode="!" horiz-adv-x="573" d="M123 131q0 67 48.5 115.5t115.5 48.5t115.5 -48.5t48.5 -115.5t-48.5 -115.5t-115.5 -48.5t-115.5 48.5t-48.5 115.5zM168 401v1033h238v-1033h-238z" />
<glyph unicode="&#x22;" horiz-adv-x="741" d="M61 1434h250q0 -309 -22 -551h-205q-23 253 -23 551zM430 1434h250q0 -298 -23 -551h-204q-23 253 -23 551z" />
<glyph unicode="#" horiz-adv-x="1183" d="M41 451v174h260l37 184h-256v174h293l92 451h180l-92 -451h197l92 451h180l-92 -451h211v-174h-248l-37 -184h244v-174h-281l-92 -451h-180l92 451h-197l-92 -451h-180l92 451h-223zM481 625h197l37 184h-197z" />
<glyph unicode="$" horiz-adv-x="1064" d="M61 324l242 69q25 -76 92.5 -122t157.5 -46q82 0 137 47t55 117q0 57 -33.5 101t-136.5 94l-118 57q-174 84 -252 185.5t-78 240.5t89 243.5t230 137.5v149h205v-149q194 -41 314 -205l-199 -149q-80 114 -215 114q-74 0 -124 -40t-50 -101q0 -32 9.5 -58t51 -64.5 t117.5 -74.5l121 -57q168 -79 243.5 -180.5t75.5 -243.5q0 -151 -96 -262.5t-248 -140.5v-150h-205v150q-138 28 -241 118.5t-144 219.5z" />
<glyph unicode="%" horiz-adv-x="1708" d="M78 1104q0 148 100 251t246 103q147 0 247.5 -103t100.5 -251t-100.5 -251t-247.5 -103q-146 0 -246 103t-100 251zM240 1104q0 -80 53.5 -136.5t130.5 -56.5q79 0 131.5 56.5t52.5 136.5t-52.5 135t-131.5 55q-78 0 -131 -55t-53 -135zM438 0l654 1434h178l-652 -1434 h-180zM936 330q0 148 100 251t246 103q147 0 247.5 -103t100.5 -251t-100.5 -251.5t-247.5 -103.5q-146 0 -246 103.5t-100 251.5zM1098 330q0 -80 53.5 -136.5t130.5 -56.5q79 0 131.5 56.5t52.5 136.5t-52.5 135t-131.5 55q-78 0 -131 -55t-53 -135z" />
<glyph unicode="&#x26;" horiz-adv-x="1259" d="M80 369q0 109 55 199t160 153l94 57l-43 62q-50 71 -71 127.5t-21 117.5q0 157 108.5 265t266.5 108t266.5 -108t108.5 -265q0 -210 -201 -331l-82 -49l104 -150l133 188h283l-274 -385l256 -358h-279l-123 174l-4 -6q-138 -193 -342 -193q-167 0 -281 114t-114 280z M313 369q0 -69 46.5 -114.5t115.5 -45.5q89 0 158 98l47 66l-154 213l-112 -68q-101 -60 -101 -149zM487 1085q0 -55 50 -124l47 -66l94 55q92 57 92 135q0 60 -40 100t-101 40t-101.5 -40t-40.5 -100z" />
<glyph unicode="'" horiz-adv-x="372" d="M61 1434h250q0 -309 -22 -551h-205q-23 253 -23 551z" />
<glyph unicode="(" horiz-adv-x="526" d="M78 578q0 523 188 976h236q-189 -455 -189 -976q0 -456 146 -867h-236q-145 408 -145 867z" />
<glyph unicode=")" horiz-adv-x="526" d="M25 -289q188 453 188 977q0 458 -145 866h235q146 -411 146 -866q0 -522 -189 -977h-235z" />
<glyph unicode="*" horiz-adv-x="802" d="M41 952l195 113l-195 113l82 143l196 -113v226h164v-226l197 113l82 -143l-195 -113l195 -113l-82 -143l-197 113v-226h-164v226l-196 -113z" />
<glyph unicode="+" horiz-adv-x="983" d="M82 498v233h293v293h233v-293h293v-233h-293v-293h-233v293h-293z" />
<glyph unicode="," horiz-adv-x="372" d="M61 301h250q0 -309 -22 -551h-205q-23 253 -23 551z" />
<glyph unicode="-" horiz-adv-x="665" d="M74 463v237h518v-237h-518z" />
<glyph unicode="." horiz-adv-x="450" d="M61 131q0 67 48.5 115.5t115.5 48.5t115.5 -48.5t48.5 -115.5t-48.5 -115.5t-115.5 -48.5t-115.5 48.5t-48.5 115.5z" />
<glyph unicode="/" horiz-adv-x="784" d="M25 0l510 1434h225l-508 -1434h-227z" />
<glyph unicode="0" horiz-adv-x="1105" d="M82 717q0 152 28.5 283.5t84 235t148 163t210.5 59.5t210.5 -59.5t148 -163t84 -235t28.5 -283.5q0 -121 -17.5 -229.5t-55 -203t-92 -163t-133 -107.5t-173.5 -39t-173.5 39t-133 107.5t-92 163t-55 203t-17.5 229.5zM319 717q0 -237 65 -370.5t169 -133.5t168.5 133.5 t64.5 370.5t-64.5 370.5t-168.5 133.5t-169 -133.5t-65 -370.5z" />
<glyph unicode="1" horiz-adv-x="507" d="M135 0v1434h238v-1434h-238z" />
<glyph unicode="2" horiz-adv-x="1009" d="M39 0l496 768q85 132 110 186.5t25 92.5q0 72 -53.5 123t-131.5 51q-71 0 -125 -52.5t-69 -134.5l-230 64q36 160 152.5 260t271.5 100q177 0 299.5 -118t122.5 -283q0 -69 -35 -146.5t-145 -248.5l-272 -424h477v-238h-893z" />
<glyph unicode="3" horiz-adv-x="976" d="M47 283l229 69q17 -62 68.5 -100.5t118.5 -38.5q83 0 138.5 56t55.5 141q0 94 -61.5 155.5t-153.5 61.5h-4v200h4q88 0 146.5 59t58.5 148q0 78 -53 132.5t-131 54.5q-63 0 -110.5 -36.5t-65.5 -94.5l-224 86q42 126 151 204t249 78q178 0 300 -119.5t122 -294.5 q0 -98 -42 -180t-116 -137q78 -55 123 -141t45 -187q0 -180 -124.5 -302t-307.5 -122q-149 0 -262.5 85.5t-153.5 222.5z" />
<glyph unicode="4" horiz-adv-x="1087" d="M41 416v237l580 781h237v-781h205v-237h-205v-416h-237v416h-580zM307 653h318v428z" />
<glyph unicode="5" horiz-adv-x="1038" d="M74 264l219 94q25 -66 82.5 -105.5t132.5 -39.5q100 0 165.5 67.5t65.5 170.5t-65.5 170t-165.5 67q-117 0 -189 -82l-165 51l20 777h731v-238h-499l-9 -285q73 15 123 15q193 0 325 -137t132 -338t-135.5 -338.5t-333.5 -137.5q-147 0 -264 79t-170 210z" />
<glyph unicode="6" horiz-adv-x="1101" d="M80 430q0 70 21 143.5t83 219.5l277 641h244l-232 -533q50 4 78 4q199 0 335 -131t136 -323q0 -201 -136 -338.5t-335 -137.5q-98 0 -185.5 36.5t-150 98t-99 145t-36.5 175.5zM317 451q0 -102 67 -170t167 -68t166.5 67.5t66.5 170.5q0 102 -66.5 169.5t-166.5 67.5 t-167 -67.5t-67 -169.5z" />
<glyph unicode="7" horiz-adv-x="952" d="M53 1196v238h873l-525 -1434h-239l436 1196h-545z" />
<glyph unicode="8" horiz-adv-x="1028" d="M82 399q0 101 45 187t123 141q-74 55 -116 137t-42 180q0 175 122 294.5t300 119.5t300 -119.5t122 -294.5q0 -98 -42 -180t-116 -137q78 -55 123 -141t45 -187q0 -180 -124.5 -302t-307.5 -122t-307.5 122t-124.5 302zM319 410q0 -85 56 -141t139 -56t139 56t56 141 q0 84 -55.5 140t-139.5 56t-139.5 -56t-55.5 -140zM330 1034q0 -79 53 -132.5t131 -53.5t131 53.5t53 132.5q0 78 -53 132.5t-131 54.5t-131 -54.5t-53 -132.5z" />
<glyph unicode="9" horiz-adv-x="1101" d="M80 985q0 201 136 338t335 137q198 0 334.5 -133.5t136.5 -320.5q0 -70 -21 -143.5t-83 -219.5l-277 -641h-244l232 533q-63 -5 -78 -5q-199 0 -335 131.5t-136 323.5zM317 985q0 -102 67 -169.5t167 -67.5t166.5 67.5t66.5 169.5q0 103 -66.5 170.5t-166.5 67.5 t-167 -68t-67 -170z" />
<glyph unicode=":" horiz-adv-x="450" d="M61 131q0 67 48.5 115.5t115.5 48.5t115.5 -48.5t48.5 -115.5t-48.5 -115.5t-115.5 -48.5t-115.5 48.5t-48.5 115.5zM61 844q0 68 48.5 116t115.5 48t115.5 -48t48.5 -116t-48.5 -116t-115.5 -48t-115.5 48t-48.5 116z" />
<glyph unicode=";" horiz-adv-x="450" d="M61 842q0 68 48.5 116t115.5 48t115.5 -48t48.5 -116t-48.5 -116t-115.5 -48t-115.5 48t-48.5 116zM100 301h250q0 -309 -22 -551h-205q-23 253 -23 551z" />
<glyph unicode="&#x3c;" horiz-adv-x="983" d="M82 500v233l819 371v-256l-502 -227l502 -209v-252z" />
<glyph unicode="=" horiz-adv-x="983" d="M82 293v233h819v-233h-819zM82 702v234h819v-234h-819z" />
<glyph unicode="&#x3e;" horiz-adv-x="983" d="M82 160v252l502 209l-502 227v256l819 -371v-233z" />
<glyph unicode="?" horiz-adv-x="872" d="M47 1087q9 159 120 265t269 106q163 0 276 -110t113 -263q0 -67 -28 -137t-111 -221l-180 -326h-252l229 418q66 121 85.5 172t19.5 94q0 55 -44 95.5t-108 40.5q-58 0 -99.5 -37.5t-49.5 -96.5h-240zM215 131q0 67 48.5 115.5t115.5 48.5t115.5 -48.5t48.5 -115.5 t-48.5 -115.5t-115.5 -48.5t-115.5 48.5t-48.5 115.5z" />
<glyph unicode="@" horiz-adv-x="1974" d="M80 512q0 257 120.5 469.5t330.5 334.5t464 122q190 0 360 -70.5t292 -191t193 -288.5t71 -356q0 -143 -50 -261.5t-138 -186.5t-195 -68q-86 0 -156.5 41.5t-109.5 110.5q-117 -123 -285 -123q-188 0 -316.5 131.5t-128.5 323.5t122.5 323t301.5 131q160 0 269 -106 l2 96h188v-598q0 -69 35 -104q40 -37 98 -37q75 0 124.5 93.5t49.5 233.5q0 202 -95 366.5t-261.5 257.5t-370.5 93t-370.5 -96t-261.5 -265t-95 -376t95 -376t261.5 -265t370.5 -96q264 0 457 151l115 -145q-250 -195 -572 -195q-254 0 -464 122t-330.5 334.5t-120.5 469.5 zM729 500q0 -110 71 -184t177 -74t177 74t71 184t-71 184t-177 74t-177 -74t-71 -184z" />
<glyph unicode="A" horiz-adv-x="1548" d="M14 0l635 1434h250l635 -1434h-270l-168 389h-652l-170 -389h-260zM549 627h444l-221 514z" />
<glyph unicode="B" horiz-adv-x="1056" d="M135 0v1434h367q211 0 329 -115q121 -115 121 -285q0 -92 -40 -170.5t-111 -132.5q81 -55 127.5 -141.5t46.5 -188.5q0 -179 -133 -299q-117 -102 -320 -102h-387zM385 250h156q102 0 147 61q37 47 37 113q0 70 -37 113q-45 61 -147 61h-156v-348zM385 840h135 q88 0 137 49q45 48 45 123q0 68 -40 118q-47 54 -142 54h-135v-344z" />
<glyph unicode="C" horiz-adv-x="1513" d="M78 717q0 154 56.5 291.5t154 236t233 156t287.5 57.5q188 0 347 -85t257 -232l-205 -144q-64 98 -168.5 154.5t-230.5 56.5q-206 0 -343.5 -140t-137.5 -351t137.5 -351.5t343.5 -140.5q149 0 266.5 77.5t173.5 207.5l226 -104q-86 -195 -265 -313t-401 -118 q-152 0 -287.5 57.5t-233 156t-154 236.5t-56.5 292z" />
<glyph unicode="D" horiz-adv-x="1339" d="M135 0v1434h379q376 0 584 -252q164 -198 164 -465q0 -271 -170 -471q-206 -246 -578 -246h-379zM385 250h150q219 0 352 139q125 131 125 328q0 187 -119 319q-132 148 -358 148h-150v-934z" />
<glyph unicode="E" horiz-adv-x="1036" d="M135 0v1434h758v-250h-508v-346h569v-242h-569v-346h569v-250h-819z" />
<glyph unicode="F" horiz-adv-x="1077" d="M135 0v1434h799v-250h-549v-367h610v-250h-610v-567h-250z" />
<glyph unicode="G" d="M78 717q0 154 56.5 291.5t154 236t233 156t287.5 57.5q188 0 347 -85t257 -232l-205 -144q-64 98 -168.5 154.5t-230.5 56.5q-206 0 -343.5 -140t-137.5 -351t137.5 -351.5t343.5 -140.5q168 0 294 96t169 252h-707v230h971q4 -58 4 -86q0 -154 -56.5 -292t-154 -236.5 t-233 -156t-287.5 -57.5t-287.5 57.5t-233 156t-154 236.5t-56.5 292z" />
<glyph unicode="H" horiz-adv-x="1540" d="M135 0v1434h250v-592h770v592h250v-1434h-250v592h-770v-592h-250z" />
<glyph unicode="I" horiz-adv-x="520" d="M135 0v1434h250v-1434h-250z" />
<glyph unicode="J" horiz-adv-x="1015" d="M53 434v404h250v-424q0 -94 53 -144q48 -45 121 -45q78 0 131 56q43 49 43 133v1020h250v-1000q0 -221 -127 -342q-120 -117 -297 -117q-172 0 -295 113q-129 123 -129 346z" />
<glyph unicode="K" horiz-adv-x="1275" d="M135 0v1434h250v-627l559 627h305l-555 -615l549 -819h-297l-426 647l-135 -149v-498h-250z" />
<glyph unicode="L" horiz-adv-x="1048" d="M135 0v1434h250v-1184h610v-250h-860z" />
<glyph unicode="M" horiz-adv-x="1847" d="M135 0v1434h250l539 -1153l538 1153h250v-1434h-246v889l-417 -889h-250l-418 889v-889h-246z" />
<glyph unicode="N" horiz-adv-x="1499" d="M135 0v1434h250l729 -1012v1012h250v-1434h-250l-729 1014v-1014h-250z" />
<glyph unicode="O" d="M78 717q0 154 56.5 291.5t154 236t233 156t287.5 57.5t287.5 -57.5t233 -156t154 -236t56.5 -291.5t-56.5 -292t-154 -236.5t-233 -156t-287.5 -57.5t-287.5 57.5t-233 156t-154 236.5t-56.5 292zM328 717q0 -211 137.5 -351.5t343.5 -140.5t343.5 140.5t137.5 351.5 t-137.5 351t-343.5 140t-343.5 -140t-137.5 -351z" />
<glyph unicode="P" horiz-adv-x="1062" d="M135 0v1434h389q231 0 359 -138q112 -125 112 -303q0 -165 -100 -286q-128 -154 -371 -154h-139v-553h-250zM385 803h160q112 0 164 71q36 52 36 119q0 78 -45 129q-52 62 -155 62h-160v-381z" />
<glyph unicode="Q" d="M78 717q0 154 56.5 291.5t154 236t233 156t287.5 57.5t287.5 -57.5t233 -156t154 -236t56.5 -291.5q0 -279 -172 -483.5t-436 -247.5v-301h-246v301q-264 43 -436 247.5t-172 483.5zM328 717q0 -177 99 -307t259 -170v354h246v-354q160 40 259 170t99 307 q0 211 -137.5 351t-343.5 140t-343.5 -140t-137.5 -351z" />
<glyph unicode="R" horiz-adv-x="1099" d="M135 0v1434h379q226 0 350 -127q131 -128 131 -324q0 -145 -77 -257.5t-203 -158.5l332 -567h-287l-307 541h-68v-541h-250zM385 782h150q102 0 159 60q51 57 51 141q0 87 -51 141q-57 60 -159 60h-150v-402z" />
<glyph unicode="S" horiz-adv-x="1064" d="M61 324l242 69q25 -76 92.5 -122t157.5 -46q82 0 137 47t55 117q0 57 -33.5 101t-136.5 94l-118 57q-174 84 -252 185.5t-78 240.5q0 166 122 278.5t302 112.5q125 0 232.5 -57.5t181.5 -157.5l-199 -149q-80 114 -215 114q-74 0 -124 -40t-50 -101q0 -32 9.5 -58 t51 -64.5t117.5 -74.5l121 -57q168 -79 243.5 -180.5t75.5 -243.5q0 -175 -127.5 -294.5t-314.5 -119.5q-173 0 -307.5 97t-184.5 252z" />
<glyph unicode="T" horiz-adv-x="1085" d="M41 1184v250h1003v-250h-376v-1184h-250v1184h-377z" />
<glyph unicode="U" horiz-adv-x="1318" d="M115 530v904h250v-924q0 -136 88 -211q84 -74 206 -74q128 0 215 80q80 77 80 205v924h250v-904q0 -283 -190 -436q-151 -119 -355 -119q-201 0 -350 117q-194 151 -194 438z" />
<glyph unicode="V" horiz-adv-x="1200" d="M27 1434h258l317 -1033l318 1033h254l-449 -1434h-250z" />
<glyph unicode="W" horiz-adv-x="2093" d="M27 1434h256l288 -1063l353 1063h245l355 -1067l293 1067h249l-397 -1434h-250l-372 1126l-373 -1126h-250z" />
<glyph unicode="X" horiz-adv-x="1355" d="M27 0l495 733l-475 701h297l336 -506l336 506h293l-475 -701l495 -733h-297l-356 537l-357 -537h-292z" />
<glyph unicode="Y" horiz-adv-x="1273" d="M14 1434h289l338 -553l338 553h281l-498 -803v-635h-250v635z" />
<glyph unicode="Z" horiz-adv-x="1298" d="M70 0l729 1184h-703v250h1133l-729 -1184h721v-250h-1151z" />
<glyph unicode="[" horiz-adv-x="507" d="M78 -289v1843h405v-235h-170v-1372h170v-236h-405z" />
<glyph unicode="\" horiz-adv-x="890" d="M78 1434h225l510 -1434h-227z" />
<glyph unicode="]" horiz-adv-x="507" d="M25 -53h170v1372h-170v235h405v-1843h-405v236z" />
<glyph unicode="^" horiz-adv-x="983" d="M82 758l280 676h234l307 -676h-256l-164 358l-149 -358h-252z" />
<glyph unicode="_" horiz-adv-x="1048" d="M74 -25h901v-233h-901v233z" />
<glyph unicode="`" horiz-adv-x="1421" d="M473 1384h287l119 -266h-232z" />
<glyph unicode="a" horiz-adv-x="974" d="M61 315q0 141 99.5 238.5t245.5 97.5q129 0 229 -80v21q0 94 -45 133q-53 45 -168 45q-95 0 -207 -37v236q113 35 227 35q201 0 314 -93q55 -44 81.5 -114t26.5 -183v-614h-213v86q-98 -106 -252 -106q-142 0 -240 97t-98 238zM283 324q0 -58 47.5 -97t118.5 -39t118 39 t47 97t-47 96.5t-118 38.5t-118.5 -38.5t-47.5 -96.5z" />
<glyph unicode="b" horiz-adv-x="1208" d="M123 0v1434h237v-531q121 105 283 105q204 0 344.5 -149t140.5 -367t-140.5 -367.5t-344.5 -149.5q-175 0 -299 121v-96h-221zM354 492q0 -120 76.5 -199.5t192.5 -79.5q115 0 191.5 79.5t76.5 199.5t-76 199t-192 79t-192.5 -79t-76.5 -199z" />
<glyph unicode="c" horiz-adv-x="1101" d="M80 492q0 143 66.5 261.5t183 186.5t256.5 68q131 0 241 -60t179 -164l-195 -137q-36 58 -95 90.5t-130 32.5q-116 0 -192.5 -79t-76.5 -199t76.5 -199.5t192.5 -79.5q84 0 149 44t96 118l216 -101q-59 -136 -182.5 -217.5t-278.5 -81.5q-140 0 -256.5 68t-183 187 t-66.5 262z" />
<glyph unicode="d" horiz-adv-x="1206" d="M80 492q0 218 140.5 367t344.5 149q157 0 281 -103v529h237v-1434h-221v94q-125 -119 -297 -119q-204 0 -344.5 149.5t-140.5 367.5zM317 492q0 -120 76.5 -199.5t192.5 -79.5q115 0 191.5 79.5t76.5 199.5t-76 199t-192 79t-192.5 -79t-76.5 -199z" />
<glyph unicode="e" horiz-adv-x="1097" d="M80 492q0 143 63 261.5t172 186.5t240 68t240 -68t172 -186.5t63 -261.5q0 -42 -6 -82h-700q22 -87 93.5 -142t168.5 -55q78 0 140.5 36t96.5 97l199 -121q-65 -115 -181 -182.5t-255 -67.5q-140 0 -256.5 68t-183 187t-66.5 262zM319 586h472q-10 91 -76 148t-160 57 t-160 -57t-76 -148z" />
<glyph unicode="f" horiz-adv-x="798" d="M25 750v233h245v82q0 198 95 293q100 100 272 100q44 0 96 -10v-231q-40 4 -67 4q-85 0 -127 -54q-31 -45 -31 -139v-45h266v-233h-266v-750h-238v750h-245z" />
<glyph unicode="g" horiz-adv-x="1198" d="M80 492q0 218 140.5 367t344.5 149q169 0 291 -113v88h219v-887q0 -270 -151 -399q-146 -127 -387 -127q-124 0 -248 45v238q124 -46 248 -46q139 0 225 64q88 69 88 205v6q-120 -107 -285 -107q-204 0 -344.5 149.5t-140.5 367.5zM317 492q0 -120 76.5 -199.5 t192.5 -79.5q115 0 191.5 79.5t76.5 199.5t-76 199t-192 79t-192.5 -79t-76.5 -199z" />
<glyph unicode="h" horiz-adv-x="1081" d="M123 0v1434h237v-523q104 97 252 97q137 0 234 -84q125 -99 125 -314v-610h-238v565q0 101 -51 152q-56 53 -135 53q-68 0 -119 -39q-68 -55 -68 -166v-565h-237z" />
<glyph unicode="i" horiz-adv-x="483" d="M70 1309q0 71 51 121.5t121 50.5t121 -50.5t51 -121.5t-51 -121.5t-121 -50.5t-121 50.5t-51 121.5zM123 0v983h237v-983h-237z" />
<glyph unicode="j" horiz-adv-x="483" d="M70 1309q0 71 51 121.5t121 50.5t121 -50.5t51 -121.5t-51 -121.5t-121 -50.5t-121 50.5t-51 121.5zM123 -410v1393h237v-1393h-237z" />
<glyph unicode="k" horiz-adv-x="956" d="M123 0v1438h237v-863l312 408h272l-319 -405l319 -578h-266l-213 391l-105 -131v-260h-237z" />
<glyph unicode="l" horiz-adv-x="483" d="M123 0v1434h237v-1434h-237z" />
<glyph unicode="m" horiz-adv-x="1568" d="M123 0v983h229v-68q93 93 230 93q80 0 147.5 -32.5t112.5 -90.5q113 123 288 123q138 0 234 -93q94 -91 94 -274v-641h-237v596q0 87 -47 131q-43 43 -109 43q-61 0 -104 -37q-52 -49 -52 -137v-596h-237v596q0 96 -56 139q-41 35 -100 35q-57 0 -104 -37 q-52 -49 -52 -137v-596h-237z" />
<glyph unicode="n" horiz-adv-x="1081" d="M123 0v983h229v-80q105 105 260 105q137 0 234 -84q125 -105 125 -314v-610h-238v565q0 101 -51 152q-56 53 -135 53q-68 0 -119 -39q-68 -55 -68 -166v-565h-237z" />
<glyph unicode="o" horiz-adv-x="1171" d="M80 492q0 143 66.5 261.5t183 186.5t256.5 68t256.5 -68t183 -186.5t66.5 -261.5t-66.5 -262t-183 -187t-256.5 -68t-256.5 68t-183 187t-66.5 262zM317 492q0 -120 76.5 -199.5t192.5 -79.5q115 0 191.5 79.5t76.5 199.5t-76 199t-192 79t-192.5 -79t-76.5 -199z" />
<glyph unicode="p" horiz-adv-x="1206" d="M123 -410v1393h221v-98q125 119 297 119q204 0 344.5 -149.5t140.5 -367.5t-140.5 -367t-344.5 -149q-157 0 -281 103v-484h-237zM352 487q0 -120 76.5 -199t192.5 -79t192 79t76 199t-76.5 199.5t-191.5 79.5q-116 0 -192.5 -79.5t-76.5 -199.5z" />
<glyph unicode="q" horiz-adv-x="1206" d="M80 492q0 218 140.5 367t344.5 149q172 0 297 -119v94h221v-1393h-237v488q-124 -103 -281 -103q-204 0 -344.5 149.5t-140.5 367.5zM317 492q0 -120 76.5 -199.5t192.5 -79.5q115 0 191.5 79.5t76.5 199.5t-76 199t-192 79t-192.5 -79t-76.5 -199z" />
<glyph unicode="r" horiz-adv-x="753" d="M123 0v983h227v-141h2q103 157 281 157q47 0 108 -12v-231q-51 10 -106 10q-129 0 -199 -76q-76 -86 -76 -297v-393h-237z" />
<glyph unicode="s" horiz-adv-x="778" d="M63 709q0 125 102 210t251 85q133 0 254 -62v-262q-106 86 -254 86q-54 0 -84.5 -16.5t-30.5 -42.5q0 -21 14.5 -36.5t55.5 -33.5l129 -55q231 -100 231 -301q0 -133 -102.5 -219.5t-259.5 -86.5q-151 0 -285 78v269q119 -109 285 -109q58 0 91.5 20t33.5 50 q0 23 -15.5 39.5t-62.5 37.5l-137 60q-216 95 -216 289z" />
<glyph unicode="t" horiz-adv-x="819" d="M25 750v233h266v399h237v-399h267v-233h-267v-750h-237v750h-266z" />
<glyph unicode="u" horiz-adv-x="1069" d="M111 367v616h237v-571q0 -100 55 -152q50 -47 125 -47q73 0 121 45q60 50 60 154v571h237v-983h-229v80q-100 -105 -254 -105q-132 0 -230 82q-122 101 -122 310z" />
<glyph unicode="v" horiz-adv-x="1069" d="M18 983h252l267 -668l266 668h248l-400 -983h-233z" />
<glyph unicode="w" horiz-adv-x="1597" d="M25 983h243l189 -641l225 641h233l228 -647l190 647h240l-297 -983h-238l-239 686l-240 -686h-237z" />
<glyph unicode="x" horiz-adv-x="1013" d="M37 0l328 496l-324 487h270l197 -301l194 301h271l-324 -487l328 -496h-270l-199 307l-201 -307h-270z" />
<glyph unicode="y" horiz-adv-x="1028" d="M18 983h256l261 -594l227 594h248l-555 -1393h-244l207 514z" />
<glyph unicode="z" horiz-adv-x="954" d="M63 0l441 745h-408v238h811l-442 -745h405v-238h-807z" />
<glyph unicode="{" horiz-adv-x="722" d="M78 535v194q86 0 127 53q31 45 31 140v239q0 199 94 293q100 100 272 100q44 0 96 -10v-231q-40 4 -67 4q-86 0 -127 -53q-31 -45 -31 -140v-198q0 -199 -94 -293q94 -94 94 -293v-199q0 -94 31 -139q41 -53 127 -53q27 0 67 4v-232q-52 -10 -96 -10q-171 0 -272 101 q-94 94 -94 292v238q0 94 -31 139q-42 54 -127 54z" />
<glyph unicode="|" horiz-adv-x="507" d="M135 -410v1844h238v-1844h-238z" />
<glyph unicode="}" horiz-adv-x="722" d="M25 -47q40 -4 67 -4q86 0 127 53q31 45 31 139v199q0 199 94 293q-94 94 -94 293v198q0 95 -31 140q-41 53 -127 53q-27 0 -67 -4v231q52 10 96 10q172 0 272 -100q94 -94 94 -293v-237q0 -95 31 -140q41 -53 127 -53v-194q-85 0 -127 -54q-31 -45 -31 -139v-240 q0 -198 -94 -292q-101 -101 -272 -101q-44 0 -96 10v232z" />
<glyph unicode="~" horiz-adv-x="983" d="M82 516v229q90 54 184 54q97 0 228 -60l81 -37q59 -27 96 -35t87 -8q53 0 143 50v-230q-88 -53 -184 -53q-99 0 -228 59l-81 37q-59 27 -96 35t-87 8q-55 0 -143 -49z" />
<glyph unicode="&#xa1;" horiz-adv-x="573" d="M123 848q0 68 48.5 116t115.5 48t115.5 -48t48.5 -116t-48.5 -116t-115.5 -48t-115.5 48t-48.5 116zM168 -455v1033h238v-1033h-238z" />
<glyph unicode="&#xa2;" horiz-adv-x="1101" d="M80 717q0 191 114.5 331.5t292.5 174.5v211h205v-211q97 -22 178 -77.5t136 -135.5l-195 -138q-36 58 -95 90.5t-130 32.5q-116 0 -192.5 -79t-76.5 -199t76.5 -199.5t192.5 -79.5q84 0 149 44t96 118l216 -100q-47 -110 -141 -186.5t-214 -102.5v-211h-205v211 q-178 34 -292.5 174.5t-114.5 331.5z" />
<glyph unicode="&#xa3;" horiz-adv-x="1028" d="M31 606v234h168q-48 81 -66 133t-18 104q0 158 115.5 269.5t281.5 111.5q157 0 274.5 -100t153.5 -260l-229 -64q-17 83 -71.5 135t-127.5 52q-67 0 -113.5 -43t-46.5 -101q0 -41 19 -87t84 -150h223v-234h-189q-6 -161 -49 -303q18 -39 58 -64.5t90 -25.5 q65 0 110.5 51.5t51.5 130.5h239q-8 -180 -119 -300t-272 -120q-145 0 -252 99l-43 -74h-242q197 295 211 606h-241z" />
<glyph unicode="&#xa4;" horiz-adv-x="1273" d="M135 281l135 135q-63 101 -63 223q0 120 61 223l-133 133l146 146l133 -133q103 61 223 61q122 0 223 -63l133 135l146 -146l-133 -133q61 -103 61 -223q0 -122 -63 -223l135 -135l-146 -146l-135 135q-99 -61 -221 -61t-221 61l-135 -135zM412 639q0 -94 65.5 -159.5 t159.5 -65.5t159.5 65.5t65.5 159.5t-65.5 159.5t-159.5 65.5t-159.5 -65.5t-65.5 -159.5z" />
<glyph unicode="&#xa5;" horiz-adv-x="1380" d="M14 1434h285l391 -656l391 656h285l-393 -635h313v-217h-448l-23 -37v-92h471v-217h-471v-240h-250v240h-469v217h469v92l-22 37h-447v217h312z" />
<glyph unicode="&#xa6;" horiz-adv-x="507" d="M135 274h238v-684h-238v684zM135 750v684h238v-684h-238z" />
<glyph unicode="&#xa7;" horiz-adv-x="974" d="M61 555q0 86 38.5 160t105.5 125q-103 106 -103 256q0 154 113 258t279 104q116 0 216 -53.5t167 -147.5l-185 -139q-34 52 -85.5 80.5t-112.5 28.5q-68 0 -115 -37.5t-47 -93.5q0 -22 5.5 -40t21 -42t50.5 -49.5t89 -51.5l112 -53q156 -73 225.5 -166.5t69.5 -224.5 q0 -86 -38 -159t-105 -124q102 -105 102 -258q0 -154 -112.5 -258t-278.5 -104q-116 0 -216 53.5t-167 147.5l184 139q34 -51 86 -80t113 -29q68 0 115 37.5t47 93.5q0 22 -5.5 40t-21 42t-50.5 49.5t-89 51.5l-113 53q-156 73 -225.5 166.5t-69.5 224.5zM293 555 q0 -51 31 -92t127 -88l102 -49q55 14 88 52.5t33 90.5q0 51 -31 92t-127 88l-102 49q-55 -14 -88 -52.5t-33 -90.5z" />
<glyph unicode="&#xa8;" horiz-adv-x="1429" d="M457 1253q0 60 43 104t104 44t104.5 -44t43.5 -104q0 -61 -43 -104t-105 -43t-104.5 43t-42.5 104zM879 1253q0 60 43 104t104 44t104.5 -44t43.5 -104q0 -61 -43 -104t-105 -43t-104.5 43t-42.5 104z" />
<glyph unicode="&#xa9;" d="M78 717q0 -154 56.5 -292t154 -236.5t233 -156t287.5 -57.5t287.5 57.5t233 156t154 236.5t56.5 292t-56.5 291.5t-154 236t-233 156t-287.5 57.5t-287.5 -57.5t-233 -156t-154 -236t-56.5 -291.5zM266 717q0 155 71 282t195.5 199t276.5 72t276.5 -72t195.5 -199 t71 -282t-71 -282t-195.5 -199t-276.5 -72t-276.5 72t-195.5 199t-71 282zM457 717q0 157 105.5 263.5t260.5 106.5q94 0 172.5 -42t128.5 -117l-133 -92q-61 88 -168 88q-88 0 -145 -59t-57 -148t57 -148t145 -59q62 0 111.5 33t73.5 88l147 -70q-42 -97 -131.5 -156 t-200.5 -59q-155 0 -260.5 107t-105.5 264z" />
<glyph unicode="&#xaa;" horiz-adv-x="940" d="M49 766q0 141 99 238.5t245 97.5q130 0 230 -80v20q0 95 -45 134q-53 45 -168 45q-95 0 -207 -37v235q113 35 227 35q201 0 313 -92q55 -45 82 -114.5t27 -182.5v-614h-213v86q-46 -50 -112 -78.5t-140 -28.5q-142 0 -240 97.5t-98 238.5zM270 774q0 -58 47.5 -96.5 t118.5 -38.5t118.5 38.5t47.5 96.5t-47.5 96.5t-118.5 38.5t-118.5 -38.5t-47.5 -96.5z" />
<glyph unicode="&#xab;" horiz-adv-x="964" d="M80 535l190 352h232l-185 -352l185 -355h-236zM463 535l190 352h232l-185 -352l185 -355h-236z" />
<glyph unicode="&#xac;" horiz-adv-x="983" d="M82 498v233h819v-512h-233v279h-586z" />
<glyph unicode="&#xad;" horiz-adv-x="665" d="M74 463v237h518v-237h-518z" />
<glyph unicode="&#xae;" d="M78 717q0 154 56.5 291.5t154 236t233 156t287.5 57.5t287.5 -57.5t233 -156t154 -236t56.5 -291.5t-56.5 -292t-154 -236.5t-233 -156t-287.5 -57.5t-287.5 57.5t-233 156t-154 236.5t-56.5 292zM266 717q0 -155 71 -282t195.5 -199t276.5 -72t276.5 72t195.5 199 t71 282t-71 282t-195.5 199t-276.5 72t-276.5 -72t-195.5 -199t-71 -282zM571 358v717h250q125 0 199 -67q76 -73 76 -179q0 -77 -42 -136.5t-112 -86.5l145 -248h-184l-131 230h-37v-230h-164zM735 748h107q41 0 65.5 22.5t24.5 58.5q0 34 -27.5 58t-62.5 24h-107v-163z " />
<glyph unicode="&#xaf;" horiz-adv-x="1208" d="M289 1155v197h573v-197h-573z" />
<glyph unicode="&#xb0;" horiz-adv-x="819" d="M41 1090q0 155 107 261.5t262 106.5t261.5 -106.5t106.5 -261.5t-106.5 -262t-261.5 -107t-262 107t-107 262zM246 1090q0 -69 47.5 -116.5t116.5 -47.5t116 47.5t47 116.5t-47 116t-116 47t-116.5 -47t-47.5 -116z" />
<glyph unicode="&#xb1;" horiz-adv-x="983" d="M82 0v233h819v-233h-819zM82 539v233h293v211h233v-211h293v-233h-293v-211h-233v211h-293z" />
<glyph unicode="&#xb2;" horiz-adv-x="630" d="M23 537l282 407q53 76 79.5 126t31 68.5t4.5 41.5q0 42 -34 74t-83 32q-41 0 -70 -28.5t-38 -75.5l-160 43q24 99 97.5 162t170.5 63q118 0 199.5 -79.5t81.5 -190.5q0 -36 -5.5 -64t-35.5 -87.5t-88 -139.5l-136 -189h261v-163h-557z" />
<glyph unicode="&#xb3;" horiz-adv-x="612" d="M29 717l155 49q9 -37 38 -58.5t69 -21.5q47 0 77.5 32t30.5 81q0 55 -34.5 90t-88.5 35h-2v137h2q50 0 82.5 33.5t32.5 85.5q0 44 -28.5 75t-71.5 31q-36 0 -62.5 -21.5t-35.5 -54.5l-154 60q27 80 95.5 130t156.5 50q113 0 188.5 -76t75.5 -188q0 -59 -25 -109.5 t-69 -83.5q102 -73 102 -200q0 -116 -78.5 -194.5t-193.5 -78.5q-94 0 -165.5 54t-96.5 143z" />
<glyph unicode="&#xb4;" horiz-adv-x="1421" d="M328 1118l118 266h287l-174 -266h-231z" />
<glyph unicode="&#xb5;" horiz-adv-x="1069" d="M111 -410v1393h237v-577q0 -99 58 -148q48 -45 122 -45t127 47q54 51 54 146v577h237v-983h-229v78q-103 -103 -254 -103q-78 0 -156 33v-418h-196z" />
<glyph unicode="&#xb6;" horiz-adv-x="1159" d="M80 723v637q0 31 21.5 52.5t52.5 21.5h981v-238h-183v-1606h-237v1606h-172v-1606h-238v1059h-151q-31 0 -52.5 21.5t-21.5 52.5z" />
<glyph unicode="&#xb7;" horiz-adv-x="450" d="M61 543q0 67 48.5 115.5t115.5 48.5t115.5 -48.5t48.5 -115.5t-48.5 -115.5t-115.5 -48.5t-115.5 48.5t-48.5 115.5z" />
<glyph unicode="&#xb8;" horiz-adv-x="1421" d="M451 -389l174 266h231l-119 -266h-286z" />
<glyph unicode="&#xb9;" horiz-adv-x="327" d="M82 537v897h164v-897h-164z" />
<glyph unicode="&#xba;" horiz-adv-x="1138" d="M63 942q0 143 66.5 261.5t183 186.5t256.5 68t256.5 -68t183 -186.5t66.5 -261.5t-66.5 -261.5t-183 -186.5t-256.5 -68t-256.5 68t-183 186.5t-66.5 261.5zM301 942q0 -120 76 -199t192 -79t192.5 79t76.5 199t-76.5 199.5t-192.5 79.5q-115 0 -191.5 -79.5 t-76.5 -199.5z" />
<glyph unicode="&#xbb;" horiz-adv-x="964" d="M80 180l184 355l-184 352h231l191 -352l-187 -355h-235zM463 180l184 355l-184 352h231l191 -352l-187 -355h-235z" />
<glyph unicode="&#xbc;" horiz-adv-x="1355" d="M82 537v897h164v-897h-164zM166 0l653 1434h178l-651 -1434h-180zM692 242v164l363 489h159v-489h127v-164h-127v-244h-159v244h-363zM879 406h178v241z" />
<glyph unicode="&#xbd;" horiz-adv-x="1437" d="M82 537v897h164v-897h-164zM166 0l653 1434h178l-651 -1434h-180zM829 -2l283 408q53 76 79.5 126t31 68t4.5 41q0 42 -34 74.5t-83 32.5q-41 0 -70.5 -29t-38.5 -76l-159 43q24 99 97.5 162t170.5 63q118 0 199.5 -79.5t81.5 -190.5q0 -36 -5.5 -64t-35.5 -87.5 t-88 -139.5l-136 -188h260v-164h-557z" />
<glyph unicode="&#xbe;" horiz-adv-x="1601" d="M29 717l155 49q9 -37 38 -58.5t69 -21.5q47 0 77.5 32t30.5 81q0 55 -34.5 90t-88.5 35h-2v137h2q50 0 82.5 33.5t32.5 85.5q0 44 -28.5 75t-71.5 31q-36 0 -62.5 -21.5t-35.5 -54.5l-154 60q27 80 95.5 130t156.5 50q113 0 188.5 -76t75.5 -188q0 -59 -25 -109.5 t-69 -83.5q102 -73 102 -200q0 -116 -78.5 -194.5t-193.5 -78.5q-94 0 -165.5 54t-96.5 143zM412 0l653 1434h178l-651 -1434h-180zM938 242v164l362 489h160v-489h127v-164h-127v-244h-160v244h-362zM1124 406h179v241z" />
<glyph unicode="&#xbf;" horiz-adv-x="872" d="M47 -109q0 67 28 137.5t111 221.5l181 325h251l-229 -417q-66 -120 -85 -171.5t-19 -95.5q0 -55 43.5 -95t107.5 -40q58 0 100 37t50 96h239q-9 -158 -120 -264t-269 -106q-163 0 -276 109.5t-113 262.5zM330 846q0 68 48 116t116 48q67 0 115 -48t48 -116t-48 -116 t-115 -48q-68 0 -116 48t-48 116z" />
<glyph unicode="&#xc0;" horiz-adv-x="1548" d="M14 0l635 1434h250l635 -1434h-270l-168 389h-652l-170 -389h-260zM483 1835h287l119 -266h-232zM549 627h444l-221 514z" />
<glyph unicode="&#xc1;" horiz-adv-x="1548" d="M14 0l635 1434h250l635 -1434h-270l-168 389h-652l-170 -389h-260zM549 627h444l-221 514zM657 1569l119 266h287l-174 -266h-232z" />
<glyph unicode="&#xc2;" horiz-adv-x="1548" d="M14 0l635 1434h250l635 -1434h-270l-168 389h-652l-170 -389h-260zM455 1569l180 266h278l181 -266h-254l-66 98l-65 -98h-254zM549 627h444l-221 514z" />
<glyph unicode="&#xc3;" horiz-adv-x="1548" d="M14 0l635 1434h250l635 -1434h-270l-168 389h-652l-170 -389h-260zM453 1587q0 114 60 189t151 75q59 0 141 -43q33 -16 53 -16q22 0 35.5 13.5t13.5 35.5l189 -16q0 -116 -60 -192.5t-151 -76.5q-81 0 -144 37q-39 23 -55 23q-19 0 -32 -13t-13 -32zM549 627h444 l-221 514z" />
<glyph unicode="&#xc4;" horiz-adv-x="1548" d="M14 0l635 1434h250l635 -1434h-270l-168 389h-652l-170 -389h-260zM416 1688q0 60 43 103.5t104 43.5t104.5 -43.5t43.5 -103.5q0 -62 -43.5 -105t-104.5 -43t-104 43t-43 105zM549 627h444l-221 514zM838 1688q0 60 43 103.5t104 43.5t104.5 -43.5t43.5 -103.5 q0 -62 -43.5 -105t-104.5 -43t-104 43t-43 105z" />
<glyph unicode="&#xc5;" horiz-adv-x="1548" d="M14 0l635 1434h250l635 -1434h-270l-168 389h-652l-170 -389h-260zM535 1794q0 100 70 171t169 71q100 0 170 -71t70 -171t-70 -169t-170 -69t-169.5 69t-69.5 169zM549 627h444l-221 514zM709 1796q0 -28 18.5 -46.5t46.5 -18.5t47 18.5t19 46.5t-19 47t-47 19 t-46.5 -19t-18.5 -47z" />
<glyph unicode="&#xc6;" horiz-adv-x="1802" d="M2 0l635 1434h1022v-250h-508v-346h569v-242h-569v-346h569v-250h-819v389h-465l-170 -389h-264zM541 627h360v557h-117z" />
<glyph unicode="&#xc7;" horiz-adv-x="1513" d="M78 717q0 154 56.5 291.5t154 236t233 156t287.5 57.5q188 0 347 -85t257 -232l-205 -144q-64 98 -168.5 154.5t-230.5 56.5q-206 0 -343.5 -140t-137.5 -351t137.5 -351.5t343.5 -140.5q149 0 266.5 77.5t173.5 207.5l226 -104q-86 -195 -265 -313t-401 -118 q-152 0 -287.5 57.5t-233 156t-154 236.5t-56.5 292zM508 -389l174 266h231l-118 -266h-287z" />
<glyph unicode="&#xc8;" horiz-adv-x="1036" d="M135 0v1434h758v-250h-508v-346h569v-242h-569v-346h569v-250h-819zM213 1835h287l118 -266h-231z" />
<glyph unicode="&#xc9;" horiz-adv-x="1036" d="M135 0v1434h758v-250h-508v-346h569v-242h-569v-346h569v-250h-819zM387 1569l119 266h287l-175 -266h-231z" />
<glyph unicode="&#xca;" horiz-adv-x="1036" d="M135 0v1434h758v-250h-508v-346h569v-242h-569v-346h569v-250h-819zM184 1569l181 266h278l180 -266h-254l-65 98l-66 -98h-254z" />
<glyph unicode="&#xcb;" horiz-adv-x="1036" d="M135 0v1434h758v-250h-508v-346h569v-242h-569v-346h569v-250h-819zM145 1688q0 60 43.5 103.5t104.5 43.5t104 -43.5t43 -103.5q0 -62 -43 -105t-104 -43t-104.5 43t-43.5 105zM567 1688q0 60 43.5 103.5t104.5 43.5t104 -43.5t43 -103.5q0 -62 -43 -105t-104 -43 t-104.5 43t-43.5 105z" />
<glyph unicode="&#xcc;" horiz-adv-x="520" d="M-31 1835h287l119 -266h-232zM135 0v1434h250v-1434h-250z" />
<glyph unicode="&#xcd;" horiz-adv-x="520" d="M135 0v1434h250v-1434h-250zM143 1569l119 266h287l-174 -266h-232z" />
<glyph unicode="&#xce;" horiz-adv-x="520" d="M-59 1569l180 266h278l181 -266h-254l-66 98l-65 -98h-254zM135 0v1434h250v-1434h-250z" />
<glyph unicode="&#xcf;" horiz-adv-x="520" d="M-98 1688q0 60 43 103.5t104 43.5t104.5 -43.5t43.5 -103.5q0 -62 -43.5 -105t-104.5 -43t-104 43t-43 105zM135 0v1434h250v-1434h-250zM324 1688q0 60 43 103.5t104 43.5t104 -43.5t43 -103.5q0 -62 -43 -105t-104 -43t-104 43t-43 105z" />
<glyph unicode="&#xd0;" horiz-adv-x="1398" d="M41 606v221h154v607h378q376 0 584 -252q164 -198 164 -465q0 -271 -170 -471q-206 -246 -578 -246h-378v606h-154zM444 250h150q219 0 352 139q125 131 125 328q0 187 -119 319q-132 148 -358 148h-150v-357h330v-221h-330v-356z" />
<glyph unicode="&#xd1;" horiz-adv-x="1499" d="M135 0v1434h250l729 -1012v1012h250v-1434h-250l-729 1014v-1014h-250zM469 1587q0 114 60 189t151 75q59 0 141 -43q33 -16 53 -16q22 0 36 13.5t14 35.5l188 -16q0 -116 -60 -192.5t-151 -76.5q-80 0 -143 37q-39 23 -56 23q-19 0 -32 -13t-13 -32z" />
<glyph unicode="&#xd2;" d="M78 717q0 154 56.5 291.5t154 236t233 156t287.5 57.5t287.5 -57.5t233 -156t154 -236t56.5 -291.5t-56.5 -292t-154 -236.5t-233 -156t-287.5 -57.5t-287.5 57.5t-233 156t-154 236.5t-56.5 292zM328 717q0 -211 137.5 -351.5t343.5 -140.5t343.5 140.5t137.5 351.5 t-137.5 351t-343.5 140t-343.5 -140t-137.5 -351zM518 1835h287l119 -266h-232z" />
<glyph unicode="&#xd3;" d="M78 717q0 154 56.5 291.5t154 236t233 156t287.5 57.5t287.5 -57.5t233 -156t154 -236t56.5 -291.5t-56.5 -292t-154 -236.5t-233 -156t-287.5 -57.5t-287.5 57.5t-233 156t-154 236.5t-56.5 292zM328 717q0 -211 137.5 -351.5t343.5 -140.5t343.5 140.5t137.5 351.5 t-137.5 351t-343.5 140t-343.5 -140t-137.5 -351zM692 1569l119 266h287l-174 -266h-232z" />
<glyph unicode="&#xd4;" d="M78 717q0 154 56.5 291.5t154 236t233 156t287.5 57.5t287.5 -57.5t233 -156t154 -236t56.5 -291.5t-56.5 -292t-154 -236.5t-233 -156t-287.5 -57.5t-287.5 57.5t-233 156t-154 236.5t-56.5 292zM328 717q0 -211 137.5 -351.5t343.5 -140.5t343.5 140.5t137.5 351.5 t-137.5 351t-343.5 140t-343.5 -140t-137.5 -351zM489 1569l181 266h278l180 -266h-254l-65 98l-66 -98h-254z" />
<glyph unicode="&#xd5;" d="M78 717q0 154 56.5 291.5t154 236t233 156t287.5 57.5t287.5 -57.5t233 -156t154 -236t56.5 -291.5t-56.5 -292t-154 -236.5t-233 -156t-287.5 -57.5t-287.5 57.5t-233 156t-154 236.5t-56.5 292zM328 717q0 -211 137.5 -351.5t343.5 -140.5t343.5 140.5t137.5 351.5 t-137.5 351t-343.5 140t-343.5 -140t-137.5 -351zM487 1587q0 114 60 189t151 75q60 0 142 -43q33 -16 53 -16q22 0 35.5 13.5t13.5 35.5l188 -16q0 -116 -59.5 -192.5t-150.5 -76.5q-81 0 -144 37q-39 23 -55 23q-19 0 -32 -13t-13 -32z" />
<glyph unicode="&#xd6;" d="M78 717q0 154 56.5 291.5t154 236t233 156t287.5 57.5t287.5 -57.5t233 -156t154 -236t56.5 -291.5t-56.5 -292t-154 -236.5t-233 -156t-287.5 -57.5t-287.5 57.5t-233 156t-154 236.5t-56.5 292zM328 717q0 -211 137.5 -351.5t343.5 -140.5t343.5 140.5t137.5 351.5 t-137.5 351t-343.5 140t-343.5 -140t-137.5 -351zM451 1688q0 60 43 103.5t104 43.5t104 -43.5t43 -103.5q0 -62 -43 -105t-104 -43t-104 43t-43 105zM872 1688q0 60 43.5 103.5t104.5 43.5t104 -43.5t43 -103.5q0 -62 -43 -105t-104 -43q-62 0 -105 43t-43 105z" />
<glyph unicode="&#xd7;" horiz-adv-x="983" d="M119 408l207 206l-207 207l166 166l207 -207l206 207l166 -166l-207 -207l207 -206l-166 -166l-206 207l-207 -207z" />
<glyph unicode="&#xd8;" d="M78 715q0 154 56.5 291.5t154 236t233 156t287.5 57.5q227 0 405 -121l136 148l176 -158l-137 -149q151 -204 151 -461q0 -154 -56.5 -292t-154 -236.5t-233 -156t-287.5 -57.5q-225 0 -410 123l-129 -143l-178 158l135 147q-149 198 -149 457zM328 715q0 -158 84 -285 l647 709q-112 67 -250 67q-206 0 -343.5 -140t-137.5 -351zM555 293q112 -70 254 -70q206 0 343.5 140.5t137.5 351.5q0 164 -86 289z" />
<glyph unicode="&#xd9;" horiz-adv-x="1318" d="M115 530v904h250v-924q0 -136 88 -211q84 -74 206 -74q128 0 215 80q80 77 80 205v924h250v-904q0 -283 -190 -436q-151 -119 -355 -119q-201 0 -350 117q-194 151 -194 438zM369 1835h286l119 -266h-231z" />
<glyph unicode="&#xda;" horiz-adv-x="1318" d="M115 530v904h250v-924q0 -136 88 -211q84 -74 206 -74q128 0 215 80q80 77 80 205v924h250v-904q0 -283 -190 -436q-151 -119 -355 -119q-201 0 -350 117q-194 151 -194 438zM543 1569l119 266h286l-174 -266h-231z" />
<glyph unicode="&#xdb;" horiz-adv-x="1318" d="M115 530v904h250v-924q0 -136 88 -211q84 -74 206 -74q128 0 215 80q80 77 80 205v924h250v-904q0 -283 -190 -436q-151 -119 -355 -119q-201 0 -350 117q-194 151 -194 438zM340 1569l180 266h279l180 -266h-254l-66 98l-65 -98h-254z" />
<glyph unicode="&#xdc;" horiz-adv-x="1318" d="M115 530v904h250v-924q0 -136 88 -211q84 -74 206 -74q128 0 215 80q80 77 80 205v924h250v-904q0 -283 -190 -436q-151 -119 -355 -119q-201 0 -350 117q-194 151 -194 438zM301 1688q0 60 43.5 103.5t104.5 43.5t104 -43.5t43 -103.5q0 -62 -43 -105t-104 -43 t-104.5 43t-43.5 105zM723 1688q0 60 43 103.5t104 43.5t104.5 -43.5t43.5 -103.5q0 -62 -43 -105t-105 -43q-61 0 -104 43t-43 105z" />
<glyph unicode="&#xdd;" horiz-adv-x="1273" d="M14 1434h289l338 -553l338 553h281l-498 -803v-635h-250v635zM520 1569l119 266h287l-174 -266h-232z" />
<glyph unicode="&#xde;" horiz-adv-x="1062" d="M135 0v1434h250v-230h139q232 0 359 -137q112 -125 112 -303q0 -166 -100 -287q-127 -153 -371 -153h-139v-324h-250zM385 573h160q111 0 164 72q36 52 36 119q0 78 -45 129q-52 61 -155 61h-160v-381z" />
<glyph unicode="&#xdf;" horiz-adv-x="1007" d="M98 0v1004q0 202 107 319q125 135 315 135q178 0 300 -119.5t122 -294.5q0 -98 -42 -180t-116 -137q78 -55 123 -141t45 -187q0 -180 -124.5 -302t-307.5 -122v238q83 0 139 56t56 141q0 84 -55.5 140t-139.5 56v242q78 0 131.5 53.5t53.5 132.5q0 78 -53.5 132.5 t-131.5 54.5t-131 -56q-53 -53 -53 -151v-1014h-238z" />
<glyph unicode="&#xe0;" horiz-adv-x="974" d="M61 315q0 141 99.5 238.5t245.5 97.5q129 0 229 -80v21q0 94 -45 133q-53 45 -168 45q-95 0 -207 -37v236q113 35 227 35q201 0 314 -93q55 -44 81.5 -114t26.5 -183v-614h-213v86q-98 -106 -252 -106q-142 0 -240 97t-98 238zM193 1384h286l119 -266h-231zM283 324 q0 -58 47.5 -97t118.5 -39t118 39t47 97t-47 96.5t-118 38.5t-118.5 -38.5t-47.5 -96.5z" />
<glyph unicode="&#xe1;" horiz-adv-x="974" d="M61 315q0 141 99.5 238.5t245.5 97.5q129 0 229 -80v21q0 94 -45 133q-53 45 -168 45q-95 0 -207 -37v236q113 35 227 35q201 0 314 -93q55 -44 81.5 -114t26.5 -183v-614h-213v86q-98 -106 -252 -106q-142 0 -240 97t-98 238zM283 324q0 -58 47.5 -97t118.5 -39t118 39 t47 97t-47 96.5t-118 38.5t-118.5 -38.5t-47.5 -96.5zM367 1118l118 266h287l-174 -266h-231z" />
<glyph unicode="&#xe2;" horiz-adv-x="974" d="M61 315q0 141 99.5 238.5t245.5 97.5q129 0 229 -80v21q0 94 -45 133q-53 45 -168 45q-95 0 -207 -37v236q113 35 227 35q201 0 314 -93q55 -44 81.5 -114t26.5 -183v-614h-213v86q-98 -106 -252 -106q-142 0 -240 97t-98 238zM164 1118l180 266h279l180 -266h-254 l-66 99l-65 -99h-254zM283 324q0 -58 47.5 -97t118.5 -39t118 39t47 97t-47 96.5t-118 38.5t-118.5 -38.5t-47.5 -96.5z" />
<glyph unicode="&#xe3;" horiz-adv-x="974" d="M61 315q0 141 99.5 238.5t245.5 97.5q129 0 229 -80v21q0 94 -45 133q-53 45 -168 45q-95 0 -207 -37v236q113 35 227 35q201 0 314 -93q55 -44 81.5 -114t26.5 -183v-614h-213v86q-98 -106 -252 -106q-142 0 -240 97t-98 238zM162 1137q0 114 60 189t151 75 q59 0 141 -43q35 -17 53 -17q22 0 35.5 14t13.5 36l189 -17q0 -115 -60 -191.5t-151 -76.5q-80 0 -143 37q-37 22 -56 22t-32 -13t-13 -32zM283 324q0 -58 47.5 -97t118.5 -39t118 39t47 97t-47 96.5t-118 38.5t-118.5 -38.5t-47.5 -96.5z" />
<glyph unicode="&#xe4;" horiz-adv-x="974" d="M61 315q0 141 99.5 238.5t245.5 97.5q129 0 229 -80v21q0 94 -45 133q-53 45 -168 45q-95 0 -207 -37v236q113 35 227 35q201 0 314 -93q55 -44 81.5 -114t26.5 -183v-614h-213v86q-98 -106 -252 -106q-142 0 -240 97t-98 238zM125 1253q0 60 43 104t104 44t104.5 -44 t43.5 -104q0 -61 -43 -104t-105 -43t-104.5 43t-42.5 104zM283 324q0 -58 47.5 -97t118.5 -39t118 39t47 97t-47 96.5t-118 38.5t-118.5 -38.5t-47.5 -96.5zM547 1253q0 60 43 104t104 44t104.5 -44t43.5 -104q0 -61 -43 -104t-105 -43t-104.5 43t-42.5 104z" />
<glyph unicode="&#xe5;" horiz-adv-x="974" d="M61 315q0 141 99.5 238.5t245.5 97.5q129 0 229 -80v21q0 94 -45 133q-53 45 -168 45q-95 0 -207 -37v236q113 35 227 35q201 0 314 -93q55 -44 81.5 -114t26.5 -183v-614h-213v86q-98 -106 -252 -106q-142 0 -240 97t-98 238zM244 1343q0 100 70 171t169 71 q100 0 170 -71t70 -171q0 -99 -70 -168t-170 -69t-169.5 68.5t-69.5 168.5zM283 324q0 -58 47.5 -97t118.5 -39t118 39t47 97t-47 96.5t-118 38.5t-118.5 -38.5t-47.5 -96.5zM418 1346q0 -28 18.5 -47t46.5 -19t47 19t19 47t-19 46.5t-47 18.5t-46.5 -18.5t-18.5 -46.5z" />
<glyph unicode="&#xe6;" horiz-adv-x="1652" d="M61 315q0 141 99.5 238.5t245.5 97.5q129 0 229 -80v21q0 81 -33 119q-49 59 -180 59q-95 0 -207 -37v236q113 35 227 35q120 0 207.5 -37t130.5 -111q63 72 148 112t182 40q131 0 240 -68t172 -186.5t63 -261.5q0 -42 -6 -82h-700q22 -87 93.5 -142t168.5 -55 q78 0 140.5 36t96.5 97l199 -121q-65 -115 -181 -182.5t-255 -67.5q-112 0 -208 44t-163 122q-52 -75 -139 -118t-191 -43q-160 0 -269.5 97t-109.5 238zM283 324q0 -58 47.5 -97t118.5 -39t118 39t47 97t-47 96.5t-118 38.5t-118.5 -38.5t-47.5 -96.5zM874 586h472 q-10 91 -76 148t-160 57t-160 -57t-76 -148z" />
<glyph unicode="&#xe7;" horiz-adv-x="1101" d="M80 492q0 143 66.5 261.5t183 186.5t256.5 68q131 0 241 -60t179 -164l-195 -137q-36 58 -95 90.5t-130 32.5q-116 0 -192.5 -79t-76.5 -199t76.5 -199.5t192.5 -79.5q84 0 149 44t96 118l216 -101q-59 -136 -182.5 -217.5t-278.5 -81.5q-140 0 -256.5 68t-183 187 t-66.5 262zM295 -389l174 266h231l-118 -266h-287z" />
<glyph unicode="&#xe8;" horiz-adv-x="1097" d="M80 492q0 143 63 261.5t172 186.5t240 68t240 -68t172 -186.5t63 -261.5q0 -42 -6 -82h-700q22 -87 93.5 -142t168.5 -55q78 0 140.5 36t96.5 97l199 -121q-65 -115 -181 -182.5t-255 -67.5q-140 0 -256.5 68t-183 187t-66.5 262zM264 1384h287l119 -266h-232zM319 586 h472q-10 91 -76 148t-160 57t-160 -57t-76 -148z" />
<glyph unicode="&#xe9;" horiz-adv-x="1097" d="M80 492q0 143 63 261.5t172 186.5t240 68t240 -68t172 -186.5t63 -261.5q0 -42 -6 -82h-700q22 -87 93.5 -142t168.5 -55q78 0 140.5 36t96.5 97l199 -121q-65 -115 -181 -182.5t-255 -67.5q-140 0 -256.5 68t-183 187t-66.5 262zM319 586h472q-10 91 -76 148t-160 57 t-160 -57t-76 -148zM438 1118l119 266h287l-174 -266h-232z" />
<glyph unicode="&#xea;" horiz-adv-x="1097" d="M80 492q0 143 63 261.5t172 186.5t240 68t240 -68t172 -186.5t63 -261.5q0 -42 -6 -82h-700q22 -87 93.5 -142t168.5 -55q78 0 140.5 36t96.5 97l199 -121q-65 -115 -181 -182.5t-255 -67.5q-140 0 -256.5 68t-183 187t-66.5 262zM236 1118l180 266h278l180 -266h-253 l-66 99l-66 -99h-253zM319 586h472q-10 91 -76 148t-160 57t-160 -57t-76 -148z" />
<glyph unicode="&#xeb;" horiz-adv-x="1097" d="M80 492q0 143 63 261.5t172 186.5t240 68t240 -68t172 -186.5t63 -261.5q0 -42 -6 -82h-700q22 -87 93.5 -142t168.5 -55q78 0 140.5 36t96.5 97l199 -121q-65 -115 -181 -182.5t-255 -67.5q-140 0 -256.5 68t-183 187t-66.5 262zM197 1253q0 60 43 104t104 44t104.5 -44 t43.5 -104q0 -61 -43 -104t-105 -43t-104.5 43t-42.5 104zM319 586h472q-10 91 -76 148t-160 57t-160 -57t-76 -148zM618 1253q0 60 43.5 104t104.5 44t104 -44t43 -104q0 -61 -42.5 -104t-104.5 -43t-105 43t-43 104z" />
<glyph unicode="&#xec;" horiz-adv-x="483" d="M-49 1384h287l118 -266h-231zM123 0v983h237v-983h-237z" />
<glyph unicode="&#xed;" horiz-adv-x="483" d="M123 0v983h237v-983h-237zM125 1118l119 266h286l-174 -266h-231z" />
<glyph unicode="&#xee;" horiz-adv-x="483" d="M-78 1118l180 266h279l180 -266h-254l-65 99l-66 -99h-254zM123 0v983h237v-983h-237z" />
<glyph unicode="&#xef;" horiz-adv-x="483" d="M-117 1253q0 60 43.5 104t104.5 44t104 -44t43 -104q0 -61 -43 -104t-104 -43q-62 0 -105 43t-43 104zM123 0v983h237v-983h-237zM305 1253q0 60 43.5 104t104.5 44t104 -44t43 -104q0 -61 -43 -104t-104 -43q-62 0 -105 43t-43 104z" />
<glyph unicode="&#xf0;" horiz-adv-x="1101" d="M80 451q0 192 136 323t335 131q28 0 78 -4l-68 156h-311v221h215l-68 156h244l68 -156h264v-221h-170l115 -264q62 -146 83 -219.5t21 -143.5q0 -92 -36.5 -175.5t-99 -145t-150 -98t-185.5 -36.5q-199 0 -335 137.5t-136 338.5zM317 451q0 -102 67 -170t167 -68 t166.5 67.5t66.5 170.5q0 102 -66.5 169.5t-166.5 67.5t-167 -67.5t-67 -169.5z" />
<glyph unicode="&#xf1;" horiz-adv-x="1081" d="M123 0v983h229v-80q105 105 260 105q137 0 234 -84q125 -105 125 -314v-610h-238v565q0 101 -51 152q-56 53 -135 53q-68 0 -119 -39q-68 -55 -68 -166v-565h-237zM219 1137q0 114 60 189t151 75q59 0 141 -43q35 -17 54 -17q22 0 35.5 14t13.5 36l188 -17 q0 -115 -60 -191.5t-151 -76.5q-80 0 -143 37q-37 22 -55 22q-19 0 -32 -13t-13 -32z" />
<glyph unicode="&#xf2;" horiz-adv-x="1171" d="M80 492q0 143 66.5 261.5t183 186.5t256.5 68t256.5 -68t183 -186.5t66.5 -261.5t-66.5 -262t-183 -187t-256.5 -68t-256.5 68t-183 187t-66.5 262zM295 1384h287l118 -266h-231zM317 492q0 -120 76.5 -199.5t192.5 -79.5q115 0 191.5 79.5t76.5 199.5t-76 199t-192 79 t-192.5 -79t-76.5 -199z" />
<glyph unicode="&#xf3;" horiz-adv-x="1171" d="M80 492q0 143 66.5 261.5t183 186.5t256.5 68t256.5 -68t183 -186.5t66.5 -261.5t-66.5 -262t-183 -187t-256.5 -68t-256.5 68t-183 187t-66.5 262zM317 492q0 -120 76.5 -199.5t192.5 -79.5q115 0 191.5 79.5t76.5 199.5t-76 199t-192 79t-192.5 -79t-76.5 -199z M469 1118l119 266h286l-174 -266h-231z" />
<glyph unicode="&#xf4;" horiz-adv-x="1171" d="M80 492q0 143 66.5 261.5t183 186.5t256.5 68t256.5 -68t183 -186.5t66.5 -261.5t-66.5 -262t-183 -187t-256.5 -68t-256.5 68t-183 187t-66.5 262zM266 1118l180 266h279l180 -266h-254l-65 99l-66 -99h-254zM317 492q0 -120 76.5 -199.5t192.5 -79.5q115 0 191.5 79.5 t76.5 199.5t-76 199t-192 79t-192.5 -79t-76.5 -199z" />
<glyph unicode="&#xf5;" horiz-adv-x="1171" d="M80 492q0 143 66.5 261.5t183 186.5t256.5 68t256.5 -68t183 -186.5t66.5 -261.5t-66.5 -262t-183 -187t-256.5 -68t-256.5 68t-183 187t-66.5 262zM264 1137q0 114 60 189t151 75q59 0 141 -43q35 -17 54 -17q22 0 35.5 14t13.5 36l188 -17q0 -115 -60 -191.5 t-151 -76.5q-80 0 -143 37q-37 22 -55 22q-19 0 -32 -13t-13 -32zM317 492q0 -120 76.5 -199.5t192.5 -79.5q115 0 191.5 79.5t76.5 199.5t-76 199t-192 79t-192.5 -79t-76.5 -199z" />
<glyph unicode="&#xf6;" horiz-adv-x="1171" d="M80 492q0 143 66.5 261.5t183 186.5t256.5 68t256.5 -68t183 -186.5t66.5 -261.5t-66.5 -262t-183 -187t-256.5 -68t-256.5 68t-183 187t-66.5 262zM227 1253q0 60 43.5 104t104.5 44t104 -44t43 -104q0 -61 -43 -104t-104 -43q-62 0 -105 43t-43 104zM317 492 q0 -120 76.5 -199.5t192.5 -79.5q115 0 191.5 79.5t76.5 199.5t-76 199t-192 79t-192.5 -79t-76.5 -199zM649 1253q0 60 43.5 104t104.5 44t104 -44t43 -104q0 -61 -43 -104t-104 -43q-62 0 -105 43t-43 104z" />
<glyph unicode="&#xf7;" horiz-adv-x="983" d="M82 498v233h819v-233h-819zM344 268q0 60 44 104t104 44q61 0 104 -44t43 -104q0 -62 -42.5 -104.5t-104.5 -42.5q-60 0 -104 43t-44 104zM344 961q0 60 44 103.5t104 43.5q61 0 104 -43.5t43 -103.5q0 -62 -43 -105t-104 -43q-60 0 -104 43.5t-44 104.5z" />
<glyph unicode="&#xf8;" horiz-adv-x="1196" d="M72 111l98 100q-88 143 -76 317q15 217 171.5 356t369.5 124q133 -9 242 -82l92 92l155 -139l-100 -103q90 -142 78 -319q-9 -142 -83.5 -256t-196 -174t-261.5 -50q-133 9 -242 82l-90 -90zM330 512q-5 -69 22 -139l369 370q-54 24 -103 27q-115 7 -197 -66t-91 -192z M475 244q51 -26 105 -29q114 -8 195.5 66t90.5 192q6 73 -24 141z" />
<glyph unicode="&#xf9;" horiz-adv-x="1069" d="M111 367v616h237v-571q0 -100 55 -152q50 -47 125 -47q73 0 121 45q60 50 60 154v571h237v-983h-229v80q-100 -105 -254 -105q-132 0 -230 82q-122 101 -122 310zM246 1384h286l119 -266h-231z" />
<glyph unicode="&#xfa;" horiz-adv-x="1069" d="M111 367v616h237v-571q0 -100 55 -152q50 -47 125 -47q73 0 121 45q60 50 60 154v571h237v-983h-229v80q-100 -105 -254 -105q-132 0 -230 82q-122 101 -122 310zM420 1118l119 266h286l-174 -266h-231z" />
<glyph unicode="&#xfb;" horiz-adv-x="1069" d="M111 367v616h237v-571q0 -100 55 -152q50 -47 125 -47q73 0 121 45q60 50 60 154v571h237v-983h-229v80q-100 -105 -254 -105q-132 0 -230 82q-122 101 -122 310zM217 1118l180 266h279l180 -266h-254l-65 99l-66 -99h-254z" />
<glyph unicode="&#xfc;" horiz-adv-x="1069" d="M111 367v616h237v-571q0 -100 55 -152q50 -47 125 -47q73 0 121 45q60 50 60 154v571h237v-983h-229v80q-100 -105 -254 -105q-132 0 -230 82q-122 101 -122 310zM178 1253q0 60 43.5 104t104.5 44t104 -44t43 -104q0 -61 -42.5 -104t-104.5 -43t-105 43t-43 104z M600 1253q0 60 43.5 104t104.5 44t104 -44t43 -104q0 -61 -42.5 -104t-104.5 -43t-105 43t-43 104z" />
<glyph unicode="&#xfd;" horiz-adv-x="1028" d="M18 983h256l261 -594l227 594h248l-555 -1393h-244l207 514zM418 1118l119 266h286l-174 -266h-231z" />
<glyph unicode="&#xfe;" horiz-adv-x="1206" d="M123 -410v1844h237v-529q124 103 281 103q204 0 344.5 -149t140.5 -367t-140.5 -367.5t-344.5 -149.5q-157 0 -281 103v-488h-237zM352 492q0 -120 76.5 -199.5t192.5 -79.5q115 0 191.5 79.5t76.5 199.5t-76 199t-192 79t-192.5 -79t-76.5 -199z" />
<glyph unicode="&#xff;" horiz-adv-x="1028" d="M18 983h256l261 -594l227 594h248l-555 -1393h-244l207 514zM176 1253q0 60 43.5 104t104.5 44t104 -44t43 -104q0 -61 -42.5 -104t-104.5 -43t-105 43t-43 104zM598 1253q0 60 43 104t104 44t104.5 -44t43.5 -104q0 -61 -43 -104t-105 -43q-61 0 -104 43t-43 104z" />
<glyph unicode="&#x152;" horiz-adv-x="1794" d="M78 717q0 267 164 465q208 252 583 252h826v-250h-508v-346h569v-242h-569v-346h569v-250h-887q-371 0 -577 246q-170 200 -170 471zM328 717q0 -197 125 -328q133 -139 352 -139h88v934h-88q-227 0 -359 -148q-118 -131 -118 -319z" />
<glyph unicode="&#x153;" horiz-adv-x="1871" d="M80 492q0 143 66.5 261.5t183 186.5t256.5 68q116 0 217 -50.5t168 -138.5q63 88 156.5 138.5t201.5 50.5q131 0 240 -68t172 -186.5t63 -261.5q0 -42 -6 -82h-700q22 -87 93.5 -142t168.5 -55q78 0 140.5 36t96.5 97l199 -121q-65 -115 -181 -182.5t-255 -67.5 q-119 0 -221.5 50.5t-169.5 138.5q-67 -88 -167 -138.5t-216 -50.5q-140 0 -256.5 68t-183 187t-66.5 262zM317 492q0 -120 76.5 -199.5t192.5 -79.5q115 0 191.5 79.5t76.5 199.5t-76 199t-192 79t-192.5 -79t-76.5 -199zM1094 586h471q-10 91 -76 148t-160 57t-159 -57 t-76 -148z" />
<glyph unicode="&#x178;" horiz-adv-x="1273" d="M14 1434h289l338 -553l338 553h281l-498 -803v-635h-250v635zM279 1688q0 60 43 103.5t104 43.5t104 -43.5t43 -103.5q0 -62 -43 -105t-104 -43t-104 43t-43 105zM700 1688q0 60 43.5 103.5t104.5 43.5t104 -43.5t43 -103.5q0 -62 -43 -105t-104 -43q-62 0 -105 43 t-43 105z" />
<glyph unicode="&#x2c6;" horiz-adv-x="1396" d="M291 1118l180 266h279l180 -266h-254l-66 99l-65 -99h-254z" />
<glyph unicode="&#x2dc;" horiz-adv-x="1275" d="M242 1137q0 114 60 189t151 75q59 0 141 -43q35 -17 53 -17q22 0 35.5 14t13.5 36l189 -17q0 -115 -60 -191.5t-151 -76.5q-81 0 -144 37q-37 22 -55 22q-19 0 -32 -13t-13 -32z" />
<glyph unicode="&#x2000;" horiz-adv-x="1018" />
<glyph unicode="&#x2001;" horiz-adv-x="2036" />
<glyph unicode="&#x2002;" horiz-adv-x="1018" />
<glyph unicode="&#x2003;" horiz-adv-x="2036" />
<glyph unicode="&#x2004;" horiz-adv-x="678" />
<glyph unicode="&#x2005;" horiz-adv-x="509" />
<glyph unicode="&#x2006;" horiz-adv-x="339" />
<glyph unicode="&#x2007;" horiz-adv-x="339" />
<glyph unicode="&#x2008;" horiz-adv-x="254" />
<glyph unicode="&#x2009;" horiz-adv-x="407" />
<glyph unicode="&#x200a;" horiz-adv-x="113" />
<glyph unicode="&#x2010;" horiz-adv-x="665" d="M74 463v237h518v-237h-518z" />
<glyph unicode="&#x2011;" horiz-adv-x="665" d="M74 463v237h518v-237h-518z" />
<glyph unicode="&#x2012;" horiz-adv-x="665" d="M74 463v237h518v-237h-518z" />
<glyph unicode="&#x2013;" horiz-adv-x="1171" d="M74 465v233h1024v-233h-1024z" />
<glyph unicode="&#x2014;" horiz-adv-x="2195" d="M74 463v233h2048v-233h-2048z" />
<glyph unicode="&#x2018;" horiz-adv-x="372" d="M61 883q0 298 23 551h205q22 -242 22 -551h-250z" />
<glyph unicode="&#x2019;" horiz-adv-x="372" d="M61 1434h250q0 -309 -22 -551h-205q-23 253 -23 551z" />
<glyph unicode="&#x201a;" horiz-adv-x="372" d="M61 287h250q0 -309 -22 -551h-205q-23 253 -23 551z" />
<glyph unicode="&#x201c;" horiz-adv-x="741" d="M61 883q0 298 23 551h205q22 -242 22 -551h-250zM430 883q0 298 23 551h204q23 -253 23 -551h-250z" />
<glyph unicode="&#x201d;" horiz-adv-x="741" d="M61 1434h250q0 -309 -22 -551h-205q-23 253 -23 551zM430 1434h250q0 -298 -23 -551h-204q-23 253 -23 551z" />
<glyph unicode="&#x201e;" horiz-adv-x="741" d="M61 287h250q0 -309 -22 -551h-205q-23 253 -23 551zM430 287h250q0 -298 -23 -551h-204q-23 253 -23 551z" />
<glyph unicode="&#x2022;" horiz-adv-x="856" d="M80 610q0 145 101.5 246.5t246.5 101.5t246.5 -101.5t101.5 -246.5t-101.5 -246.5t-246.5 -101.5t-246.5 101.5t-101.5 246.5z" />
<glyph unicode="&#x2026;" horiz-adv-x="1585" d="M61 131q0 67 48.5 115.5t115.5 48.5t115.5 -48.5t48.5 -115.5t-48.5 -115.5t-115.5 -48.5t-115.5 48.5t-48.5 115.5zM629 131q0 67 48.5 115.5t115.5 48.5t115 -48t48 -116t-48 -116t-115 -48t-115.5 48.5t-48.5 115.5zM1196 131q0 67 48 115.5t116 48.5t116 -48.5 t48 -115.5t-48 -115.5t-116 -48.5t-116 48.5t-48 115.5z" />
<glyph unicode="&#x202f;" horiz-adv-x="407" />
<glyph unicode="&#x2039;" horiz-adv-x="581" d="M80 535l190 352h232l-185 -352l185 -355h-236z" />
<glyph unicode="&#x203a;" horiz-adv-x="581" d="M80 180l184 355l-184 352h231l191 -352l-187 -355h-235z" />
<glyph unicode="&#x205f;" horiz-adv-x="509" />
<glyph unicode="&#x20ac;" horiz-adv-x="1525" d="M78 453l88 192h84q-4 46 -4 72v16h-168l88 195h108q65 236 257.5 383t445.5 147q270 0 471 -168l-107 -246q-67 78 -160.5 121t-203.5 43q-147 0 -264.5 -76t-173.5 -204h751l-88 -195h-706v-16q0 -26 4 -72h667l-88 -192h-512q62 -106 170 -167t240 -61q197 0 405 152 v-283q-183 -119 -405 -119q-237 0 -423 131.5t-263 346.5h-213z" />
<glyph unicode="&#x2122;" horiz-adv-x="2004" d="M135 1270v164h623v-164h-230v-733h-163v733h-230zM870 537v897h158l342 -727l342 727h158v-897h-164v544l-258 -544h-158l-256 544v-544h-164z" />
<glyph unicode="&#x25fc;" horiz-adv-x="983" d="M0 0v983h983v-983h-983z" />
</font>
</defs>
</svg>
